2024 Lindsey pelas live - Early life and education. Pelas was born on May 19, 1991, near Independence, Louisiana. She was one of nine children and attended a rural high school and then Louisiana State University obtaining a bachelor's degree in History. After graduating, Pelas worked as a bartender and yoga instructor. [citation needed]

 
Posted by Vassago on March 30, 2022, 10:15 pm. Lindsey Pelas vs Hannah Palmer. (Celebrity Wrestling Federation vs FCBA Independent) (5-9, 5 KO vs FCBA Debut) JMD Value: 32F (Natural) vs 34E (Natural) Results: Lookout!; Story: Vassago. BEFORE: Queendom veteran Lindsey Pelas just signed a contract with the new CWF stable and is more than ready to .... Lindsey pelas live

130k Likes, 1,241 Comments - LINDSEY PELAS (@lindseypelas) on Instagram: “Live footage from my closet with my functional new @monet_brand phone accessory. It acts as a grip,…”All things JR but mostly Giga Texas weekly videos. Get your official merch here: https://giga-texas-merch.company.site/. Director: Mike Hatton | Stars: Nick Cannon, Alec Baldwin, Mike Hatton, Paul Sloan. 10. The Trouble. 120 min | Comedy | Post-production. Billy Mack a Hollywood celeb went from living in a Malibu beach house to living in a 1998 Chevrolet Malibu with his only companion, a Pitbull named Boo.Aug 18, 2021 · Lindsey Pelas Facebook Live Video 3Find her here https://www.instagram.com/lindseypelas/?hl=enPlease check out for more modelshttps://twitter.com/fashionking... We would like to show you a description here but the site won’t allow us. Lindsey Pelas Photos. Last updated on Jul 10, 2018, 20.11. Lindsey Pelas. See more of: Instagram model, Lindsey Pelas, foreign model. View all photos from this album. Lindsey Pelas.Lindsey Pelas was live.When this happens, it's usually because the owner only shared it with a small group of people, changed who can see it or it's been deleted. Go to News Feed.Lindsey Pelas. Actress: Extraction. Lindsey Pelas is an American actress, social media influencer, entrepreneur, and model. She models for multiple brands, and has also been featured in publications including Maxim, GQ, Glamour and has also modeled for Playboy and was the Playboy Cyber Girl of the Month for May 2014 Lindsey Pelas: Cybergirl of …Lindsey Pelas has also spoken on digital marketing at many panels and conferences including the Global Ventures Summit in Los Angeles and Mexico City, as well as Complex Con and the Forum. Moreover, she moved to Los Angeles in 2015 and her bombshell looks quickly caught the eyes of local photographers. She created viral …Lindsey Pelas is an American actor, social media influencer, entrepreneur, and model who has modeled for Playboy and was the Playboy Cyber Girl of the Month for May 2014. Over the years, she has also been a part of various shows and movies which include the likes of Extraction, TMZ on TV, Famously Single, Pop Trigger, Playboy Plus, Englishman in L.A., …Getty Lindsey Pelas attends the premiere of Columbia Pictures' 'Miss Bala' at Regal LA Live Stadium 14 on January 30, 2019 in Los Angeles, California.Kandy Magazine January 2018: Lindsey Pelas - World's Most Desirable Woman Prior to now, Ive in no way experienced a passion about reading through publications Kandy Magazine January 2018: Lindsey Pelas - World's Most Desirable Woman The only time that I at any time go through a e-book go over to include was again in class when you really ...Nicki Swift caught up with Lindsey Pelas via Zoom to discuss her impressive social media presence, her forthcoming acting projects and more.In a 2016 interview with TMZ Sports, she defended the university's decision to have a live tiger as a mascot, despite the growing backlash. Pelas explained, "They've …Mar 12, 2023 · Oscars Live Stream: Watch ABC’s Official 2023 Red Carpet Pre-Show. By Andy Swift. March 12, 2023 10:00 am. Watch LIVE Oscars 2023: 95th Academy Awards Pre-Show & Red Carpet. Hollywood’s ... Kirton in Lindsey Town Hall – Built to celebrate Queen Victoria’s Diamond Jubilee in 1897 the Town Hall dominates the Market Place. It is built with stone taken from the old Kirton prison or House of Correction as it was known. At the parish level there is Kirton-in-Lindsey Town Council which is based at Kirton in Lindsey Town Hall.MaximoTV. Entertainment media outlet covering celebrity red carpet events in Los Angeles for broadcast TV, online, and all media. Our high-quality fashion b-roll is used in editorial entertainment news stories around the globe. Also on …Lindsey Pelas was live.Lindsey Pelas talks about her new Calendar drop!Find her here https://www.instagram.com/lindseypelas/Please check out for more modelshttps://twitter.com/fash...A near-topless picture posted by Playboy model Lindsey Pelas has sent her fans into a frenzy over why her breasts appear different sizes. The 26-year-old, who is from Louisiana, shared the image ...Films LA is a full service video and photo content production company. We work with some of the largest influencers and companies in the world, producing tho...107k Likes, 1,063 Comments - LINDSEY PELAS (@lindseypelas) on Instagram: “Ok so I opted out of my last pic to bring you a live one. Here’s me right now with my botanical…” Here’s me right now with my botanical friends- Plant and Herman*.Lindsey Pelas was live. what do you think about cuddle up and watch a movie on the couchNicki Swift caught up with Lindsey Pelas via Zoom to discuss her impressive social media presence, her forthcoming acting projects and more.2023-11-28 14:57:39 fonte:Lindsey Pelas. Lindsey Pelas LIVE Lindsey Pelas【009.casino】 sẽ nhận được 59K trải nghiệm miễn phí, Nạp đầu tặng 100%Messi đã 7 lần giành danh hiệu cầu thủ xuất sắc nhất tại World Cup, vượt qua Ronaldo ...Lindsey Pelas is a small town Louisiana OnlyFans girl with big dreams! She is a model, actress, and well known influencer. She shares her most exclusive naughty content on Louisiana OnlyFans where ...Lindsey Pelas was live.Share your videos with friends, family, and the worldLindsey Pelas is a social media super star! Let's see if her Onlyfans is as grand as her other social media platforms📣 Social Media💦OnlyFans: NicoleLovesOn... We would like to show you a description here but the site won’t allow us.72K views, 6.9K likes, 2.7K loves, 1.7K comments, 201 shares, Facebook Watch Videos from Lindsey Pelas: Lindsey Pelas was live. Nicki Swift caught up with Lindsey Pelas via Zoom to discuss her impressive social media presence, her forthcoming acting projects and more.October 25, 2019. Instagram model Lindsey Pelas was the latest celebrity to be preyed upon by an infamous group of online hackers who not only released nude photos of the star but also made death ...Details File Size: 1822KB Duration: 1.700 sec Dimensions: 399x498 Created: 10/8/2020, 1:48:07 PMLindsey Pelas Spills the Actual Lifestyle of Dan Bilzerian. Watch on. "So hanging out with Dan came with a lot of perks but it was 100 percent real, his lifestyle was real. "It was so interesting ...We would like to show you a description here but the site won’t allow us.Aug 18, 2021 · Lindsey Pelas Facebook Live Video 3Find her here https://www.instagram.com/lindseypelas/?hl=enPlease check out for more modelshttps://twitter.com/fashionking... Lindesy Pelas Fans. 3,221 likes · 3 talking about this. We are the Lindsey Pelas fans and we wish her succes in her live.. Like this page and meet with LindHttps://www.maximotv.com B-roll footage: Models Emily Sears, Ashley Alexiss, Lindsey Pelas on the red carpet at the annual MAXIM Halloween party held at the Nightingale Plaza in Los Angeles, California USA on October 28, 2023. This video is only available for editorial use on broadcast TV, online, and worldwide platforms.10 pinned by moderators Posted by u/AvaAddamsFanpage 10 months ago r/LindseyPelasFanss Lounge 11 messages Live Chat 27 Posted by u/Cereal_Poster69 3 days ago Goddess Lindsey Pelas in a Pink Cheetah Print Dress 0 comments 27 Posted by u/Dell_XX 7 days ago Lindsey Pelas in a Red Dress nsfw 0 comments 41 Posted by u/AvaAddamsFanpage 7 days agoLindsey Pelas was live. I've stayed between Lake Charles and Lafayette area. Don't miss that bayou humidity!!!! Lol. Lindsey Pelas was live.9/17/2016 12:30 AM PT. Louisiana-bred model Lindsey Pelas doesn't need a lifeguard watching over her as she wades in the Pacific. Take a look ... she could float all on her own. Lindsey Pelas Hot ...With Lindsey Pelas, 70 episodes.Blonde, busty and…brainy? Model and Social Media Superstar Lindsey Pelas is here to end social stereotyping one topic at a time. Inspired by a life of being misunderstood, this modern-day bombshell is guaranteed to have you seeing past the bikini and why we can all use a little Eyes Up Here.Model and Instagram fitness star Lindsey Pelas, 24, regularly posts sexy, nearly-nude pictures online. She's been called cruel names but says she isn't going to stop taking sexy pictures.MaximoTV. Entertainment media outlet covering celebrity red carpet events in Los Angeles for broadcast TV, online, and all media. Our high-quality fashion b-roll is used in editorial entertainment news stories around the globe. Also on …View the profiles of people named Bra Ekblad. Join Facebook to connect with Bra Ekblad and others you may know. Facebook gives people the power to share...Lindsey Pelas is the "IT" girl on Instagram. If you don't believe me just ask any of her 5.9 million followers. ... Get browser notifications for breaking news, live events, and exclusive ...FILE "07 Blue Light - Lindsey Buckingham.flac" WAVE TRACK 07 AUDIO TITLE "Blue Light - Lindsey Buckingham" ISRC USRH12001856 REM REPLAYGAIN_TRACK_GAIN -10.17 dB REM REPLAYGAIN_TRACK_PEAK 0.999969 INDEX 01 00:00:00 FILE "08 Power Down - Lindsey Buckingham.flac" WAVE TRACK …Lindsey Pelas was live. what do you think about cuddle up and watch a movie on the couchAccording to her personal website bio, Lindsey Pelas is a "social media superstar." ... she defended the university's decision to have a live tiger as a mascot, despite the growing backlash. Pelas ...Lindsey Pelas talks about her new Calendar drop!Find her here https://www.instagram.com/lindseypelas/Please check out for more modelshttps://twitter.com/fash...130k Likes, 1,241 Comments - LINDSEY PELAS (@lindseypelas) on Instagram: “Live footage from my closet with my functional new @monet_brand phone accessory. It acts as a grip,…”By: Evan Jankens. @kingofthekc. Lindsey Pelas is the "it" girl on Instagram. If you don't believe me, just ask any of her 5.9 million followers. This past week was Mardi …Lindsey Pelas is a social media super star! Let's see if her Onlyfans is as grand as her other social media platforms📣 Social Media💦OnlyFans: NicoleLovesOn... Lindsey Pelas Salary. Lindsey Pelas’s annual salary is estimated to be around $700k. However, her earnings are not limited to this figure. With her massive social media following, she can charge high prices for sponsored posts. It is estimated that she could earn up to $22.6 thousand for a single post. Lindsey Pelas Overview and Wiki. Early LifeKirton in Lindsey Town Hall – Built to celebrate Queen Victoria’s Diamond Jubilee in 1897 the Town Hall dominates the Market Place. It is built with stone taken from the old Kirton prison or House of Correction as it was known. At the parish level there is Kirton-in-Lindsey Town Council which is based at Kirton in Lindsey Town Hall.Sobre a comunidade. Dedicated thread to Lindsey Pelas. Rules: 1. No links to discords or other sites are to be used in comments! This will not be tolerated and will result in permanent bans. 2. Please don’t request to become a moderator.Social Media Sensation, Lindsey Pelas, joins me today! We talk about moving to LA from Louisiana, working at Hooters, the creative process behind making your... A post shared by LINDSEY PELAS (@lindseypelas) Lindsey Pelas says she’ll never reduce her natural 30HH boobs — despite suffering back pain “all the time.”. The 26-year-old model believes ...Browse Getty Images' premium collection of high-quality, authentic Jayne Mansfield stock photos, royalty-free images, and pictures. Jayne Mansfield stock photos are available in a variety of sizes and formats to fit your needs.Mar 25, 2016 · Lindsey Pelas has been taking the world of Instagram by storm with a fan base of over 3 million followers. She can also currently be seen on the current season of MTV’s Wild N’ Out. We recently got a chance to chat with Lindsey about modeling, life in LA, and what is next. The Ruston, Louisiana native was voted Most Ambitious in high school. View the profiles of people named Bra Ekblad. Join Facebook to connect with Bra Ekblad and others you may know. Facebook gives people the power to share...2:23. Lindsey Pelas On Plant-Based Diet, Worst Pickup Line, Staying Fit, Body Compliments, Happiness. MaximoTV. 3:49. Instagram Model Lindsey Pelas Challenges Odell Beckham Jr. to Slide Into Her DMs. The Fumble. 1:22. Lindsey Pelas 2018 Maxim Hot 100 Experience Event. MaximoTV.We would like to show you a description here but the site won’t allow us. According to her personal website bio, Lindsey Pelas is a "social media superstar." ... she defended the university's decision to have a live tiger as a mascot, despite the growing backlash. Pelas ...When this happens, it's usually because the owner only shared it with a small group of people, changed who can see it or it's been deleted. Go to News Feed.Lindsey Pelas was live.Naturally-busty Instagram star Lindsey Pelas, 24, measures between a 32DDD and a 30H. In an honest new video, she explains all the bad things that come with being top-heavy. ... US Open 2023 LIVE ...u_BadBloodVII. LINDSEY PELAS - ONLYFANS UPDATE ⬇️. More like this. Free. Download.🔔 Subscribe & 👍LikeLindsey Pelas Beautiful Model🔥😍 4K HD | The Beauty ShowLinks and resources:=====🔔 Subscribe for more: http...FILE "07 Blue Light - Lindsey Buckingham.flac" WAVE TRACK 07 AUDIO TITLE "Blue Light - Lindsey Buckingham" ISRC USRH12001856 REM REPLAYGAIN_TRACK_GAIN -10.17 dB REM REPLAYGAIN_TRACK_PEAK 0.999969 INDEX 01 00:00:00 FILE "08 Power Down - Lindsey Buckingham.flac" WAVE TRACK …Watch Lindsey hd porn videos for free on Eporner.com. We have 362 videos with Lindsey, Lindsey Pelas, Lindsey Love, Lindsey Olsen, Lindsey Cruz, Lindsey Love Pornhub, Lindsey Woods, Lindsey Lohan Sex Tape, Lindsey Meadows, Lindsey Pelas Sex, Lindsey Lohan in our database available for free.Tiger Woods 69420. 01-12-2020, 04:14 AM. Includes 6 OF vids and a bunch of OF pics. Also a lot of older vids which are better than OF in my opinion. The following 15 users Like Tiger Woods 69420 's post: Tiger Woods 69420 • amirogozhin Andy Carrol Annual-New huawi yisan ipg35 janli bisou jdski341 nachosdeldia Paul Chircop PrestigiousAd2215 ...Instagram Lindsey Pelas Thread starter dfigueroap; Start date Aug 20, 2022; Reply 8 dfigueroap Pawn Leaker. LV . 0 . Joined Aug 19, 2022 Messages 657 Awards 1 Credits 3,575 Aug 20, 2022 #1 TWITTER INSTAGRAM ONLYFANS . dfigueroap Pawn Leaker. LV . 0 . Joined Aug 19, 2022 Messages 657 Awards 1 Credits 3,575 Aug 20, …Body is not valid JSON. OKLindsey Pelas Salary. Lindsey Pelas’s annual salary is estimated to be around $700k. However, her earnings are not limited to this figure. With her massive social media following, she can charge high prices for sponsored posts. It is estimated that she could earn up to $22.6 thousand for a single post. Lindsey Pelas Overview and Wiki. …We would like to show you a description here but the site won’t allow us.Body is not valid JSON. OKLindsey Pelas Photos. Last updated on Jul 10, 2018, 20.11. Lindsey Pelas. See more of: Instagram model, Lindsey Pelas, foreign model. View all photos from this album. Lindsey Pelas.Aug 28, 2015 · Lindsey Pelas is the next big thing on Instagram. She has 2.1 million followers and there are plenty of reasons why. ... Get browser notifications for breaking news, live events, and exclusive ... Early life and education. Pelas was born on May 19, 1991, near Independence, Louisiana. She was one of nine children and attended a rural high school and then Louisiana State …We would like to show you a description here but the site won’t allow us.MaximoTV. Entertainment media outlet covering celebrity red carpet events in Los Angeles for broadcast TV, online, and all media. Our high-quality fashion b-roll is used in editorial entertainment news stories around the globe. Also on …FILE "07 Blue Light - Lindsey Buckingham.flac" WAVE TRACK 07 AUDIO TITLE "Blue Light - Lindsey Buckingham" ISRC USRH12001856 REM REPLAYGAIN_TRACK_GAIN -10.17 dB REM REPLAYGAIN_TRACK_PEAK 0.999969 INDEX 01 00:00:00 FILE "08 Power Down - Lindsey Buckingham.flac" WAVE TRACK …A post shared by LINDSEY PELAS (@lindseypelas) on Feb 12, 2023 at 12:17pm PST. Pelas (29) is also the host and founder of the “Eyes Up Here” podcast, which is streamed weekly on Focus TV. She currently models for multiple brands and has also been featured in publications including Maxim, GQ and Glamour. View this post on …Onlyfans content User avOnlyfans Video Content in Doodlinks. Arranged Chronologically. Join TELEGRAM : https://t.me/ofcontent. 11th Jan 2022. Vicky AishaAug 28, 2022 · Broll footage: Lindsey Pelas attends the 'A Midsummer Night's Dream' red carpet fashion event presented by Max Events LLC held at SKYBAR LA in West Hollywood... Lindsey Pelas is an actress, model, and social media influencer from Louisiana. She currently models for multiple brands and has also been featured in publications such as Cosmopolitan, Maxim, GQ, Glamour, and Playboy. Pelas is also the host and founder of the Eyes Up Here with Lindsey Pelas podcast which is streamed …Lindsey pelas live

lindsey pelas Photos. 249 stock photos on the topic lindsey pelas are available for licensing. Or start a new search to discover more pictures at IMAGO. /3. 28.05.2021 . IMAGO / PA Images. Kassi Beach House Opening - Las Vegas Lindsey Pelas, Kassi Beach House Opening Virgin Hotels Las Vegas Las Vegas, Nv May 28, 2021 …. Lindsey pelas live

lindsey pelas live

Jan 10, 2022 · Onlyfans content User avOnlyfans Video Content in Doodlinks. Arranged Chronologically. Join TELEGRAM : https://t.me/ofcontent. 11th Jan 2022. Vicky Aisha Lindsey Pelas was live. | By Lindsey Pelas | Facebook Video Home Reels Explore Lindsey Pelas was live Like 6.5K · 2.5K comments · 76K views Lindsey Pelas …Lindsey Pelas, 31, receives a lot of love from her 8.6 million Instagram followers — but she also receives constant harassment for her sexy shots.We would like to show you a description here but the site won’t allow us. Lindsey Pelas. 61. Sort by: Open comment sort options. 12K subscribers in the lindsey_pelas_fan community. Dedicated thread to Lindsey Pelas. Rules: 1. No links to discords or other sites are to be used….2023-12-09 22:26. Lindsey Pelas (Lindsey Pelas) appeared on the street, she was followed by fans for pictures when she was out at night, she was very charming and looked very charming. Lindsey Pelas looked chic in a black outfit. Lindsey Pelas was beautiful that night, with delicate and feminine makeup, long blond hair and a cape, and a ...Lindsey Pelas attends the Premiere Of Columbia Pictures' "Miss Bala" at Regal LA Live Stadium 14 on January 30, 2019 in Los Angeles, California. Actress / Model Lindsey Pelas attends the 4th annual "Babes In Toyland" Pet Gala benefiting "Operation Blankets Of Love" at Avalon on March 21, 2018... Lindsey Pelas is an American actor, social media influencer, entrepreneur, and model who has modeled for Playboy and was the Playboy Cyber Girl of the Month for May 2014. . Over the years, she has also been a part of various shows and movies which include the likes of Extraction, TMZ on TV, Famously Single, Pop Trigger, Playboy Plus, Englishman in L.A., Coded Court, and The Eric Andre Instagram: https://instagram.com/lindseypelasLindsey Pelas was live.Sep 8, 2015 · See the latest Lindsey Pelas news, videos and photo galleries on TMZ. Skip to main content. Got A Tip? Email Or Call (888) 847-9869 ... TMZ Live TMZ Sports download the app App Store ... Oct 21, 2020 · https://forms.gle/tk2GQHWZBsxCDzxn7If you want to donate!paypal.me/dongslong69Review for another shitty onlyfans account. Please like and subscribe as I am a... Early life and education. Pelas was born on May 19, 1991, near Independence, Louisiana. She was one of nine children and attended a rural high school and then Louisiana State University obtaining a bachelor's degree in History. After graduating, Pelas worked as a bartender and yoga instructor. [citation needed]Mar 12, 2023 · Oscars Live Stream: Watch ABC’s Official 2023 Red Carpet Pre-Show. By Andy Swift. March 12, 2023 10:00 am. Watch LIVE Oscars 2023: 95th Academy Awards Pre-Show & Red Carpet. Hollywood’s ... Thothub.org. •. Mar 12 2023. try on 3-10 live accident send out for free P1. Watch Lindsey Pelas-try on 3-10 live accident send out for free P1 video on Fappy - the best place to find free videos from your favorite adult creators.Naturally-busty Instagram star Lindsey Pelas, 24, measures between a 32DDD and a 30H. In an honest new video, she explains all the bad things that come with being top-heavy. ... US Open 2023 LIVE ...All things JR but mostly Giga Texas weekly videos. Get your official merch here: https://giga-texas-merch.company.site/. Lindsey Pelas is an American actor, social media influencer, entrepreneur, and model who has modeled for Playboy and was the Playboy Cyber Girl of the Month for May 2014. . Over the years, she has also been a part of various shows and movies which include the likes of Extraction, TMZ on TV, Famously Single, Pop Trigger, Playboy Plus, Englishman in L.A., Coded Court, and The Eric AndreFilms LA is a full service video and photo content production company. We work with some of the largest influencers and companies in the world, producing tho...TMZ Live TMZ Sports download the app App Store Google Play ... Model Lindsey Pelas -- J.J. Watt Blew His Shot ... I'm Over Him (VIDEO) 9/28/15 Abigail Ratchford And Lindsey Pelas -- Pay Attention ...Jan 26, 2022 · Arranged Chronologically. Join TELEGRAM : https://t.me/ofcontent. 27th Jan 2022. Demi Rose 4 sets. https://link-hub.net/219949/demi-rose-4-sets-25-image We would like to show you a description here but the site won’t allow us. AMA. by IamLindseyPelas in IAmA. It would've been easier to just be a rich man's gf honestly. Porn is legitimate work, I think porn stars are underestimated and undervalued a lot. I’m Lindsey Pelas. Model, social media person, Tosh (my dog) enthusiast.Lindsey Pelas Photos. Last updated on Jul 10, 2018, 20.11. Lindsey Pelas. See more of: Instagram model, Lindsey Pelas, foreign model. View all photos from this album. Lindsey Pelas.Kandy Magazine January 2018: Lindsey Pelas - World's Most Desirable Woman Prior to now, Ive in no way experienced a passion about reading through publications Kandy Magazine January 2018: Lindsey Pelas - World's Most Desirable Woman The only time that I at any time go through a e-book go over to include was again in class when you really ...56 Following 215.8K Followers 755.6K Likes Instagram: @LINDSEYPELAS Louisiana girl in LA 🌴 Glamour Girl 💋 Instagram.com/lindseypelas Videos Liked 9470 doesnt even take shots… the right song will do it 🤣 21.2K She been LAWFUL 14.4K Jk yes it is 2615 🤪 12.5K 🤓 7218 I love my world 🌎 💕 17.4KHere are some of the women that have made bank from hanging out with the Blitz. Scroll down to find out how their lives changed after partying with Dan Bilzerian. 1. Lindsey Pelas. The Instagram model from Louisiana wants to make two things clear—she considers herself a “feminist” bombshell, and she’s defniitely not a slut.Posted by Vassago on March 30, 2022, 10:15 pm. Lindsey Pelas vs Hannah Palmer. (Celebrity Wrestling Federation vs FCBA Independent) (5-9, 5 KO vs FCBA Debut) JMD Value: 32F (Natural) vs 34E (Natural) Results: Lookout!; Story: Vassago. BEFORE: Queendom veteran Lindsey Pelas just signed a contract with the new CWF stable and is more than ready to ...Matt Lye 15:33 Don't worry about being single I Been single 7 years 2y View more comments 2 of 2,370 Lindsey Pelas was live.Lindsey stands at a height of 5 feet 3 inches or 1.6 meters. Similarly, she weighs around 56 kg and has a chest-waist-hip measurement of 38-24-36 inches. Lindsey has green eyes and dark brown hair color that she often dyes blonde.New Page. [email protected]. HoursUpdated on February 9th, 2023 by Abigail Thomas: Justin Bobby stepped away from the limelight of Hollywood for a long time following his time on The Hills. Instead, he chose to focus on his music and his hairdresser business. He has found great success as a hairdresser. He was a part of the reboot The Hills: New Beginnings, but the show was ...Updated on February 9th, 2023 by Abigail Thomas: Justin Bobby stepped away from the limelight of Hollywood for a long time following his time on The Hills. Instead, he chose to focus on his music and his hairdresser business. He has found great success as a hairdresser. He was a part of the reboot The Hills: New Beginnings, but the show was ...Lindsey Pelas is an actress, model, and social media influencer from Louisiana. She currently models for multiple brands and has also been featured in publications such as Cosmopolitan, Maxim, GQ, Glamour, and Playboy. Pelas is also the host and founder of the Eyes Up Here with Lindsey Pelas podcast which is streamed …OnlyFans is the social platform revolutionizing creator and fan connections. The site is inclusive of artists and content creators from all genres and allows them to monetize their content while developing authentic relationships with their fanbase.2023-12-09 22:26. Lindsey Pelas (Lindsey Pelas) appeared on the street, she was followed by fans for pictures when she was out at night, she was very charming and looked very charming. Lindsey Pelas looked chic in a black outfit. Lindsey Pelas was beautiful that night, with delicate and feminine makeup, long blond hair and a cape, and a ...Matt Lye 15:33 Don't worry about being single I Been single 7 years 2y View more comments 2 of 2,370 Lindsey Pelas was live.Lindsey Pelas. Actress: Extraction. Lindsey Pelas is an American actress, social media influencer, entrepreneur, and model. She models for multiple brands, and has also been featured in publications including Maxim, GQ, Glamour and has also modeled for Playboy and was the Playboy Cyber Girl of the Month for May 2014 Lindsey Pelas: Cybergirl of …Lindsey Pelas Salary. Lindsey Pelas’s annual salary is estimated to be around $700k. However, her earnings are not limited to this figure. With her massive social media following, she can charge high prices for sponsored posts. It is estimated that she could earn up to $22.6 thousand for a single post. Lindsey Pelas Overview and Wiki. …Lindsey Stirling Wallpapers. Favorite. [90+] Elevate your desktop with stunning HD wallpapers featuring the talented Lindsey Stirling, bringing the perfect blend of music and visual art to your computer screen. Level up your …Lindsey Pelas’ Boobs Are Distracting! Got A Tip? Email Or Call (888) 847-9869. You have notifications blocked. Unblock. Nothing about this holiday season is normal. There are SO many reasons to not be okay. We are all grieving SO much! We are all not okay. Some mamas are... Edit Your Post Published by Lindsey Henke on December 3, 2020 Nothing about this holi...Lindsey Pelas Spills the Actual Lifestyle of Dan Bilzerian. Watch on. "So hanging out with Dan came with a lot of perks but it was 100 percent real, his lifestyle was real. "It was so interesting ...Social Media Sensation, Lindsey Pelas, joins me today! We talk about moving to LA from Louisiana, working at Hooters, the creative process behind making your... Browse 556 lindsey pelas photos and images available, or start a new search to explore more photos and images. Showing Editorial results for lindsey pelas. ... Lindsey Pelas attends the Premiere Of Columbia Pictures' "Miss Bala" at Regal LA Live Stadium 14 on January 30, 2019 in Los Angeles, California. ...A post shared by LINDSEY PELAS (@lindseypelas) on Feb 12, 2023 at 12:17pm PST. Pelas (29) is also the host and founder of the “Eyes Up Here” podcast, which is streamed weekly on Focus TV. She currently models for multiple brands and has also been featured in publications including Maxim, GQ and Glamour. View this post on Instagram.喜欢就点个赞呗!, 视频播放量 22629、弹幕量 2、点赞数 199、投硬币枚数 16、收藏人数 535、转发人数 21, 视频作者 MaximoTV, 作者简介 QQ美女铁粉群:850588949,相关视频:花花公子女郎 Bianca Richards 红毯 in Toyland Pet Edition Charity by MaximoTV,小甜甜过于激动主题跑偏变为竞选女友【康熙来了】,真人版白雪 ...Lindsey Pelas was live. Do you want tu visit Paris with me I’m French and it will be a pleasure to be you servitor during this tripfresh 2023 leaks of all onlyfans models! download mega nz for freeAMA. by IamLindseyPelas in IAmA. It would've been easier to just be a rich man's gf honestly. Porn is legitimate work, I think porn stars are underestimated and undervalued a lot. I’m Lindsey Pelas. Model, social media person, Tosh (my dog) enthusiast.Alone at Night: Directed by Jimmy Giannopoulos. With Ashley Benson, Jon Foster, Sky Ferreira, Jake Weary. Quarantine leads to a night of terror.FILE "07 Blue Light - Lindsey Buckingham.flac" WAVE TRACK 07 AUDIO TITLE "Blue Light - Lindsey Buckingham" ISRC USRH12001856 REM REPLAYGAIN_TRACK_GAIN -10.17 dB REM REPLAYGAIN_TRACK_PEAK 0.999969 INDEX 01 00:00:00 FILE "08 Power Down - Lindsey Buckingham.flac" WAVE TRACK …. Vox solaris